Veteran Guy
Read MoreThe New Atkins for a New You Breakfast and Brunch Dishes
1x06 Violet Evergarden

Winchester (2018) English 720p WEB-DL x264 AAC @ KatMaster

  • Category Movies
  • Type HD
  • Language English
  • Total size 796.0 MB
  • Uploaded By KatMaster
  • Downloads 30
  • Last checked 10 minutes ago
  • Date uploaded 1 day ago
  • Seeders 3
  • Leechers 3

Winchester

FantasyHorror

Firearm heiress Sarah Winchester is convinced that she is haunted by the souls killed at the hands of the Winchester repeating rifle. After the sudden deaths of her husband and child, she throws herself into the construction of an enormous mansion designed to keep the evil spirits at bay. But when skeptical San Francisco psychiatrist Eric Price is dispatched to the estate to evaluate her state of mind, he discovers that her obsession may not be so insane after all.

Infohash : 4B113A50364F4F1D63A35811914FCBE0F92E0418



Code:

[FORMAT]:…………………….[ Matroska
[ENCODER]:…………..[ KatMaster
[THANKS TO]:…………………..[ EtHD






Movie Info:

Genres: Biography, Fantasy, Horror
Directed by: Michael Spierig, Peter Spierig
Writers: Tom Vaughan, Michael Spierig
Stars Cast: Helen Mirren, Sarah Snook, Finn Scicluna-O’Prey
IMDb: http://www.imdb.com/title/tt1072748/
Language: English

Video
ID : 1
Format : AVC
Format/Info : Advanced Video Codec
Format profile : [email protected]
Format settings : CABAC / 4 Ref Frames
Format settings, CABAC : Yes
Format settings, ReFrames : 4 frames
Codec ID : V_MPEG4/ISO/AVC
Duration : 1 h 39 min
Bit rate : 1 000 kb/s
Width : 1 280 pixels
Height : 532 pixels
Display aspect ratio : 2.40:1
Frame rate mode : Constant
Frame rate : 23.976 (24000/1001) FPS
Color space : YUV
Chroma subsampling : 4:2:0
Bit depth : 8 bits
Scan type : Progressive
Bits/(Pixel*Frame) : 0.061
Stream size : 703 MiB (88%)

Audio
ID : 2
Format : AAC
Format/Info : Advanced Audio Codec
Format profile : LC
Codec ID : A_AAC-2
Duration : 1 h 39 min
Bit rate : 128 kb/s
Channel(s) : 2 channels
Channel positions : Front: L R
Sampling rate : 48.0 kHz
Frame rate : 46.875 FPS (1024 SPF)
Compression mode : Lossy
Delay relative to video : -21 ms
Stream size : 91.1 MiB (11%)


Screenshots:





Files:

Winchester (2018) English 720p WEB-DL x264 AAC
  • Winchester (2018) English 720p WEB-DL x264 AAC.mkv (796.0 MB)
  • Website.url (0.0 KB)

There are currently no comments. Feel free to leave one :)

Code:

  • udp://tracker.coppersurfer.tk:6969/announce
  • udp://tracker.ilibr.org:6969/announce
  • udp://tracker.ilibr.org:80/announce
  • udp://tracker.opentrackr.org:1337/announce
  • udp://zer0day.to:1337/announce
  • udp://tracker.zer0day.to:1337/announce
  • udp://p4p.arenabg.com:1337/announce
  • udp://p4p.arenabg.ch:1337/announce
  • udp://tracker.leechers-paradise.org:6969/announce
  • udp://explodie.org:6969/announce
  • udp://9.rarbg.to:2710/announce
  • udp://eddie4.nl:6969/announce
  • udp://9.rarbg.to:2770/announce